+ Responder tema
Resultados 1 al 7 de 7

Descargar LEONES VS COCODRILOS ENEMIGOS EN LUCHA (MU) ESPAÑOL Gratis

  1. #1
    IVAN HERNANDEZ JUAREZ está desconectado bovino maduro
    Fecha de ingreso
    10 ago, 07
    Ubicación
    en mexico d.f.
    Mensajes
    287

    LEONES VS COCODRILOS ENEMIGOS EN LUCHA (MU) ESPAÑOL

    LEONES VS COCODRILOS, ENEMIGOS EN LUCHA


    En el increíble Valle de Luangwa, en Zambia, conviven una gran diversidad de especies animales salvajes, algunas de ellas en una constante y tensa lucha por la supremacía. Un claro ejemplo se da entre los leones y los cocodrilos que habitan este bello paraje cuando, cada año, combaten entre sí.

    El león quiere salvar a sus jóvenes crías de las garras de este voraz reptil y los cocodrilos intentan conseguir la mejor presa posible entre la manada de felinos. El río que cruza este valle, y que lleva su mismo nombre, se caracteriza por ser uno de los que alberga una mayor concentración de cocodrilos de todo el mundo. Una circunstancia que dificulta seriamente que los leones machos puedan aproximarse a las hembras de su especie y así llevar a cabo el ritual del apareamiento. ¿Conseguirán los leones en esta ocasión librarse del acoso de los cocodrilos? ¿Podrán criar a salvo a sus recién nacidas crías?¿Quién se alzará con la victoria en este salvaje combate?.



    Información del documental
    Idioma: Español
    Año: 2007
    Nacionalidad: EE.UU
    Productora: Aquavision TV Productions
    Guión: Gary Parker
    Duración: 50 min
    Rippeo: SATRip
    Ripper: Especiales
    Tamaño: 550 MBs
    Un solo enlace Megaupload
    ..:: Datos Técnicos ::..

    Format/Info: Audio Video Interleave
    File size: 550 MiB
    Duration: 49mn 59s
    Overall bit rate: 1 538 Kbps
    Writing application: VirtualDubMod 1.5.4.1 (build 2178/release)
    Writing library: VirtualDubMod build 2178/release

    Video
    Format: MPEG-4 Visual
    Format profile: Advanced Simple@L5
    Format settings, BVOP: Yes
    Format settings, QPel: No
    Format settings, GMC: No warppoints
    Format settings, Matrix: Custom
    Codec ID: XVID
    Codec ID/Hint: XviD
    Duration: 49mn 59s
    Bit rate: 1 403 Kbps
    Width: 640 pixels
    Height: 384 pixels
    Display aspect ratio: 1.667
    Frame rate: 25.000 fps
    Resolution: 24 bits
    Colorimetry: 4:2:0
    Scan type: Progressive
    Bits/(Pixel*Frame): 0.228
    Stream size: 502 MiB (91%)
    Writing library: XviD 1.2.1 (UTC 2008-12-04)

    Audio
    Format: MPEG Audio
    Format version: Version 1
    Format profile: Layer 3
    Codec ID: 55
    Codec ID/Hint: MP3
    Duration: 49mn 59s
    Bit rate mode: Constant
    Bit rate: 128 Kbps
    Channel(s): 2 channels
    Sampling rate: 48.0 KHz
    Resolution: 16 bits
    Stream size: 45.8 MiB (9%)
    Alignment: Aligned on interleaves
    Interleave, duration: 80 ms (2.00 video frames)
    Interleave, preload duration: 504 ms












    Código: Seleccionar todo
    http://www.megaupload.com/?d=FQV622X9




    Cortesia de: Especiales
    De Docuzone

  2. #2
    arom_niuglo está desconectado bovino adicto
    Fecha de ingreso
    16 dic, 08
    Ubicación
    En Tenalgeo
    Mensajes
    589

    Gracias se agradece tu aporte me encantan este tipo de documentales gracias compa se agradece

  3. #3
    rampage11 está desconectado bovino milenario
    Fecha de ingreso
    29 ene, 08
    Ubicación
    D.F santa fe
    Mensajes
    1,046

    gracias por el aporte
    podcast de amm la mejor informacion al dia
    http://www.composta.net/versus
    http://combate.podomatic.com/
    bane11,bucefalo,rampage11

  4. #4
    rampage11 está desconectado bovino milenario
    Fecha de ingreso
    29 ene, 08
    Ubicación
    D.F santa fe
    Mensajes
    1,046

    gracias por el aporte
    podcast de amm la mejor informacion al dia
    http://www.composta.net/versus
    http://combate.podomatic.com/
    bane11,bucefalo,rampage11

  5. #5
    bodoque1 está desconectado becerro
    Fecha de ingreso
    15 mar, 10
    Mensajes
    40

    GRACIAS BAJANDO

  6. #6
    6HECMAN9 está desconectado bovino adicto
    Fecha de ingreso
    06 abr, 08
    Mensajes
    796

    BUEN DOCUMENTAL, GRACIAS POR EL APORTE AL CORRAL.

  7. #7
    otreblanc está desconectado bovino adicto
    Fecha de ingreso
    30 jun, 05
    Ubicación
    Tuxtla Gtz, Chiapas
    Mensajes
    752

    gracias por el aporte .. descargando..
    Photo comming Soon!

Permisos de publicación

  • No puedes crear nuevos temas
  • No puedes responder temas
  • No puedes subir archivos adjuntos
  • No puedes editar tus mensajes